» » Shakin' Stevens - There Are Two Kind Of Music - Rock 'N' Roll

Shakin' Stevens - There Are Two Kind Of Music - Rock 'N' Roll mp3 flac

  • Singer: Shakin' Stevens
  • Album: There Are Two Kind Of Music - Rock 'N' Roll
  • MP3: 1652 mb | FLAC: 1398 mb
  • Released: 1990
  • Country: UK
  • Style: Rock & Roll
  • Rating: 4.7/5
  • Votes: 577
  • Format: MMF WAV APE ASF DMF AA XM
Shakin' Stevens - There Are Two Kind Of Music - Rock 'N' Roll mp3 flac

Complete your Shakin' Stevens collection. Rock 'N' Roll, Cass, Album, Unofficial, AP 189. Hi here is Wolfgang Hummel from vienna. Please put in this rare Theres two Kind of rocknroll Cassette rare so that i can make purchase to you!Please put it in so that i can give in my basket.

Pop music Rock music. Released at: This album was released on the label Telstar (catalog number STAR 2454). This album was released in 1990 year. A1. Shakin' Stevens - Love Attack mp3. A2. Shakin' Stevens - I Might mp3. A3.

Request an album send to friend. Rock'n'Roll! (1990) .

Artist: Shakin' Stevens Title: There Are Two Kinds Of Music. Tracklist: A1 Love Attack A2 I Might A3 Yes I Do A4 You Shake Me Up A5 Tell Me A6 Tear It Up B1 My Cutie Cutie B2 The Night Time Is The Right Time B3 Pink Champagne B4 If I Lose You B5 Queen Of The Hop B6 Rockin´ The Night.

1. (00:03:13) Shakin' Stevens - Love Attack. 2. (00:03:04) Shakin' Stevens - I Might. 3. (00:03:05) Shakin' Stevens - Yes I Do. 4. (00:02:55) Shakin' Stevens - You Shake Me Up (Re-mix). Rock 'n' Roll (1990)/ - . 0.

Shakin' Stevens - There Are Two Kinds Of Music. Rock'n'Roll ! - 1990, FLAC (image+. Download via torrent Download via magnet.

ARTIST: Shakin' Stevens. Rock'n'Roll! Release year, date: 1990. Country: UK. STYLE: Rock'n'Roll. Rock'n'Roll! (1990) for free in Lossless quality. You can download the torrent file on the top of the page. Look for more music Shakin' Stevens. Music styles and genres.

Album by Shakin' Stevens. Yes I Do. You Shake Me Up. Tell Me. Tear It Up. My Cutie Cutie. The Night Time Is the Right Time. If I Lose You. Queen of the Hop. Rockin' the Night Away. Bonus tracks on 2009 CD reissue. Love Attack (Single version). Radio (Single version).

Rock'n'Roll! Used drive : PLEXTOR CD-R PX-W2410A Adapter: 1 ID: 0 Read mode : Secure Utilize accurate stream : Yes Defeat audio cache : Yes Make use of C2 pointers : No Read offset correction : 98 Overread into Lead-In and Lead-Out : Yes Fill up missing offset samples with silence : Yes Delete leading and trailing silent blocks : No Null samples used in CR. Rock'n'Roll!" FILE "01 Love Attack. wav" WAVE TRACK 01 AUDIO TITLE "Love Attack" PERFORMER "Shakin' Stevens" INDEX 01 00:00:00 FILE "02 I Might. wav" WAVE TRACK 02 AUDIO TITLE "I Might" PERFORMER "Shakin' Stevens" INDEX 01 00:00:00 FILE "03 Yes I D. av" WAVE TRACK 03 AUDIO TITLE "Yes I Do" PERFORMER "Shakin' Stevens" INDEX 01 00:00:00 TRACK.

Discover all of this album's music connections, watch videos, listen to music, discuss and download. Tear It Up by Johnny Burnette and The Rock 'N Roll Trio (1956). is a cover of. If I Lose You by Billy Fury (1962). Queen of the Hop by Bobby Darin (1958).

Tracklist

A1 Love Attack
A2 I Might
A3 Yes I Do
A4 You Shake Me Up
A5 Tell Me
A6 Tear It Up
B1 My Cutie Cutie
B2 The Night Time Is The Right Time
B3 Pink Champagne
B4 If I Lose You
B5 Queen Of The Hop
B6 Rockin' The Night Away

Credits

  • Producer – Pete Hammond

Barcode and Other Identifiers

  • Barcode: 5 099746741143
  • Rights Society: BIEM/STEMRA
  • Label Code: 0199
  • Price Code: 58
  • Other: CB491

Other versions

Category Artist Title (Format) Label Category Country Year
467411 1 Shakin' Stevens There Are Two Kinds Of Music ...Rock´n´Roll ! ‎(LP) Epic 467411 1 UK 1990
BM-428 Shakin' Stevens There's Two Kinds Of Rock'n'Roll ‎(Cass, Album, Unofficial) Baron Music BM-428 Poland 1991
RX 162 Shakin' Stevens There Are Two Kind Of Music - Rock 'N' Roll ‎(Cass, Album, Unofficial) Stereo-Style RX 162 Poland Unknown
STAC 2454 Shakin' Stevens There Are Two Kind Of Music - Rock 'N' Roll ‎(Cass, Album) Telstar STAC 2454 UK 1990
KSF 3350 Shakin' Stevens There Are Two Kinds Of Music... Rock 'N' Roll ‎(LP, Album) Epic KSF 3350 South Africa 1990