» » Dan Siegel - Dan Siegel

Dan Siegel - Dan Siegel mp3 flac

  • Singer: Dan Siegel
  • Album: Dan Siegel
  • MP3: 1307 mb | FLAC: 1975 mb
  • Released: 1982
  • Country: US
  • Rating: 4.8/5
  • Votes: 166
  • Format: VOC AU AC3 DMF VQF ASF AHX
Dan Siegel - Dan Siegel mp3 flac

Dan Siegel - Dan Siegel (1982). Исполнитель: Dan Siegel Альбом: Dan Siegel Год выпуска: 1982 Жанр: Jazz, Smooth Jazz, Piano Jazz, Contemporary Jazz Лейбл: Elektra. Songs in album Dan Siegel - Dan Siegel (1982). 1. Great Expectations.

Complete your Dan Siegel collection. 17, Dynamic Range Meter . 1 log date: 2018-12-01 22:11:13. Analyzed: Dan Siegel, Dan Siegel -. DR Peak RMS Duration Track -DR11 . 0 dB -1. 2 dB 4:16 01-Great Expectations DR12 . 3 dB 3:51 02-Enchanted Forest DR10 . 7 dB 5:10 03-Uptown DR11 . 4 dB 5:07 04-Soaring DR10 . 5 dB.

Profile: American pianist, composer and record producer.

Dan Siegel (born in Seattle, Washington) is a pianist, composer, and record producer. His earlier music has been described as new age, while his more recent work has been called contemporary jazz. Siegel was born in Seattle, Washington and raised in Eugene, Oregon. When he was eight, he began piano lessons, and at 12 he was performing professionally in a rock band. He went to the Berklee College of Music in Boston, then the University of Oregon.

Quality: 320Kbps, Lossless. Genre: Indie Pop. Released: 2019. Quality: 320Kbps, Lossless.

DAN SIEGEL is a world fusion, post-fusion contemporary, jazz related pop/art song/folk fusion music artist. Fusion, World Fusion, Post-Fusion Contemporary, Jazz Related Pop/Art Song/Folk, United States.

Tracklist

Great Expectations 4:14
Enchanted Forest 3:50
Uptown 5:09
Soaring 5:06
The Lone Ranger 3:58
Touch And Go 3:01
Deserted Beach 3:46
Passing Time 3:59
The Conqueror 4:00

Versions

Category Artist Title (Format) Label Category Country Year
E1-60037, S 674646 Dan Siegel Dan Siegel ‎(LP, Album, Promo) Elektra, Elektra E1-60037, S 674646 US 1982
E1-60037, S 674646 Dan Siegel Dan Siegel ‎(LP, Album) Elektra, Elektra E1-60037, S 674646 Philippines 1982
E1-60037 Dan Siegel Dan Siegel ‎(LP, Album) Elektra E1-60037 US 1982
P-11190 Dan Siegel Dan Siegel ‎(LP, Album) Elektra P-11190 Japan 1982
P-11190 Dan Siegel Dan Siegel ‎(LP, Album, Promo) Elektra P-11190 Japan 1982
E1-60037 Dan Siegel Dan Siegel ‎(LP, Album, SP) Elektra E1-60037 US 1982
WPCR-28179 Dan Siegel Dan Siegel ‎(CD, Album, RE, RM, 24b) Warner Bros. Records, Elektra WPCR-28179 Japan 2015


DrayLOVE
foobar2000 1.3.17 / Dynamic Range Meter 1.1.1log date: 2018-12-01 22:11:13--------------------------------------------------------------------------------Analyzed: Dan Siegel / Dan Siegel--------------------------------------------------------------------------------DR Peak RMS Duration Track--------------------------------------------------------------------------------DR11 0.00 dB -12.42 dB 4:16 01-Great ExpectationsDR12 0.00 dB -13.73 dB 3:51 02-Enchanted ForestDR10 0.00 dB -12.07 dB 5:10 03-UptownDR11 0.00 dB -12.04 dB 5:07 04-SoaringDR10 0.00 dB -11.15 dB 4:00 05-The Lone RangerDR11 0.00 dB -12.08 dB 3:03 06-Touch And GoDR11 0.00 dB -12.84 dB 3:48 07-Deserted BeachDR12 0.00 dB -13.26 dB 4:00 08-Passing TimeDR10 0.00 dB -12.12 dB 4:02 09-The Conqueror--------------------------------------------------------------------------------Number of tracks: 9Official DR value: DR11Samplerate: 44100 HzChannels: 2Bits per sample: 16Bitrate: 1052 kbpsCodec: ALAC================================================================================
Mopimicr
The sound of this reissue is amazing. A pleasure to have this one remastered in 24 bits.
Related mp3, flac albums at Dan Siegel - Dan Siegel: