» » Bud Shank, Clare Fischer, Joe Pass - Brasamba!

Bud Shank, Clare Fischer, Joe Pass - Brasamba! mp3 flac

  • Singer: Bud Shank
  • Album: Brasamba!
  • MP3: 1572 mb | FLAC: 1877 mb
  • Released: 1963
  • Country: US
  • Style: Bossa Nova, Latin Jazz
  • Rating: 4.7/5
  • Votes: 388
  • Format: DTS MP3 WMA AA APE MPC VOX
Bud Shank, Clare Fischer, Joe Pass - Brasamba! mp3 flac

Bud Shank With Clare Fischer - Brasamba ‎(LP, Album, RE). Liberty.

Artist: Joe Pass, Clare Fischer, Bud Shank. Joe Pass - Aaron's Song 04:30. Bud Shank, Clare Fischer, Joe Pass: best 2 tracks. Joe Pass - Blues For Alican Virtuoso, 1974 05:24. Joe Pass - Night And Day Virtuoso, 1974 03:32. Artist: Joe Pass Clare Fischer Bud Shank.

Personnel: Bud Shank - fl, as Clare Fischer - p Joe Pass - g Ralph Peña - b Larry Bunker - vib, d Milt Holland & Chuck Flores - perc.

August 2016, 18:32 Bud Shank, Clare Fischer, Joe Pass/Brasamba! Used drive : HL-DT-STDVDRAM GP50NW41 Adapter: 1 ID: 0 Read mode : Secure Utilize accurate stream : Yes Defeat audio cache : Yes Make use of C2 pointers : No Read offset correction : 6 Overread into Lead-In and Lead-Out : No Fill up missing offset samples with silence : Yes Delete leading and trailing silent blocks : No Null samples used in CRC. calculations : Yes Used interface : Native Win32 interface for Win NT 2000 Gap handling : Appended to previous track Used output format : User Defined Encoder Selected bitrate : 1024 kBit/s.

Joe Pass Serenidade feat Bud Shank, Clare Fischer. Bud Shank, Clare Fischer feat. Joe Pass Brasamba feat Joe Pass.

Joe Pass, Clare Fischer, Bud Shank - If I Should Lose You 02:55 Nocturno. Amy Hakimi T. S. Ayyappan Jakes Bejoy, Jaya Moorthy, T. Ayyappan Baby Neha Chavara Master Ryan Farooq P. Jayachandran, Baby Neha Chavara, Master Ryan Farooq Suchith Suresan, Jakes Bejoy Bilgee Andreas Arifin Priza Nicole Forcadela Suyasha Sleep Music Guys Piano Covers Club Normal Madness Coki & Yeni Gursher KarenSevak Tamara Jamharyan, Artur Mnacakanyan Artur Mnacakanyan Vardan Badalyan, Lusine Vardanyan David Melkonyan Beast Mode.

FILE "Bud Shank - Brasamba!. wav" WAVE TRACK 01 AUDIO TITLE "Brasamba" PERFORMER "Bud Shank" INDEX 01 00:00:00 TRACK 02 AUDIO TITLE "Otem a Note" PERFORMER "Bud Shank" INDEX 00 03:51:65 INDEX 01 03:54:18 TRACK 03 AUDIO TITLE "Autumn Leaves" PERFORMER "Bud Shank" INDEX 00 07:57:42 INDEX 01 07:59:70 TRACK 04 AUDIO TITLE "Sambinha". Fischer's piano is remarkably strong – caught at that clear early point in his career when he was such a fresh voice on the scene. The whole thing's wonderful overall – and if you think you might have it under another name, check the song listings – because we bet you don't! Titles include "Sambinha", "Gostoso", "Elizete", "O Barquinho", "Brasamba", and "Otem A Note". Скачать раздачу по magnet-ссылке · 28. MB.

Home Jazz . DOL. Bud Shank/Clare Fischer/JOE Pass.

Tracklist

A1 Brasamba
A2 Ontem A Noite
A3 Autumn Leaves
A4 Sambinha
A5 Gostoso
B1 If I Should Lose You
B2 Barquinho
B3 Serenidade
B4 Elizete
B5 Samba De Orfeu

Notes

Red Vinyl

Other versions

Category Artist Title (Format) Label Category Country Year
PJ-64 Bud Shank / Clare Fischer / Joe Pass Bud Shank / Clare Fischer / Joe Pass - Brasamba! ‎(LP, Album, Mono) Pacific Jazz PJ-64 US 1963
21002 Bud Shank / Clare Fischer / Joe Pass Bud Shank / Clare Fischer / Joe Pass - Brasamba! ‎(LP, Album, Mono) Tizoc 21002 Mexico 1963
ST-64 Bud Shank / Clare Fischer / Joe Pass Bud Shank / Clare Fischer / Joe Pass - Brasamba! ‎(LP, Album, RP) Pacific Jazz ST-64 US 1965
LN-10092 Bud Shank With Clare Fischer Bud Shank With Clare Fischer - Brasamba ‎(LP, Album, RE) Liberty LN-10092 US 1981
688 131 ZL Bud Shank / Clare Fischer / Joe Pass Bud Shank / Clare Fischer / Joe Pass - Brasamba! ‎(LP, Album, Mono) Fontana 688 131 ZL Netherlands Unknown