» » National Youth Jazz Orchestra - A View From The Hill

National Youth Jazz Orchestra - A View From The Hill mp3 flac

  • Singer: National Youth Jazz Orchestra
  • Album: A View From The Hill
  • MP3: 1458 mb | FLAC: 1196 mb
  • Released: 1996
  • Country: US
  • Style: Big Band
  • Rating: 4.6/5
  • Votes: 964
  • Format: XM MP4 WMA AUD MMF APE DMF
National Youth Jazz Orchestra - A View From The Hill mp3 flac

Another superb live album from Ronnie Scott's by this wonderfully gifted young British Big Band. Personnel: Trumpets: Andy Cuss, Mike Thomas, Pat White, Mick Ball, Brad Mason. TRACK LIST: 01. Marston Pedigree 02. Flight of the Heart 03. A View from the Hill 04. Don't Try and Argue with Me 05. Norwich Union 06. Riffin' the Griffin 07. Ballad for Anne Boleyn 08. Fleet 09.

1 Marston Pedigree 4:45 2 Flight Of The Heart 6:49 3 A View From The Hill 7:37 4 Don't Try And Argue With Me 4:12 5 Norwich Union 6:41 6 Riffin' The Griffin 7:33 7 Ballad For Anne Boleyn 7:48 8 Fleet 5:21 9 Samba Deeze, Samba Doze 4:28 10 Someone 3:41. 11 Luton Hoo 8:22 12 Astra Brazilia :55. Line-up/Musicians.

The National Youth Jazz Orchestra (NYJO) is a British jazz orchestra founded in 1965 by Bill Ashton. In 2010 Mark Armstrong took over as Music Director of the flagship performing band, and Artistic Director of the organisation; Bill Ashton became Life President, and Nigel Tully became Executive Chair. Based in Westminster, London, NYJO started life as the London Schools' Jazz Orchestra and evolved into becoming the national orchestra.

Release source: CD. Year: 1995. Discography of National Youth Jazz Orchestra.

KBPS stands for kilobits per second and the number of KBPS represents the audio quality of the MP3s. Here's the range of quality: 128 kbps good, 192 kbps great, 256 kbps awesome and 320 kbps perfect.

National Youth Jazz Orchestra. Profile: One of Britain’s longest-running ensembles for young people under 25 playing big-band jazz. National Youth Jazz Orchestra. To Russia With Jazz ‎(2xLP, Album).

Listen to albums and songs from NYJO (National Youth Jazz Orchestra). Napster and the Napster logo are registered trademarks of Rhapsody International Inc.

A View From The Hill (7:37) 04. Don't Try And Argue With Me (4:13) 05. Norwich Union (6:41) 06. Riffin' The Griffin (7:34) 07. Ballad For Anne Boleyn (7:49) 08. Fleet (5:21) 0. Samba Deeze, Samba Doze" PERFORMER "National Youth Jazz Orchestra" INDEX 01 50:48:57 TRACK 10 AUDIO TITLE "Someone" PERFORMER "National Youth Jazz Orchestra" INDEX 01 55:17:25 TRACK 11 AUDIO TITLE "Luton Hoo" PERFORMER "National Youth Jazz Orchestra" INDEX 01 58:58:32 TRACK 12 AUDIO TITLE "Astra Brazilia" PERFORMER "National Youth Jazz Orchestra" INDEX 01 67:21:20.

Request an album send to friend. The National Youth Jazz Orchestra. The National Youth Jazz Orchestra - Jazz In Film. Bitrate (quality): 192256320. A View From The Hill (1995).

Tracklist Hide Credits

1 Marston Pedigree
Composed By – Adrian Bullers
4:45
2 Flight Of The Heart
Composed By – Bill Charleson
6:49
3 A View From The Hill
Composed By – Andy Vinter
7:37
4 Don't Try And Argue With Me
Composed By – Alec Gould, Bill Ashton
4:12
5 Norwich Union
Arranged By – Peter NylanderComposed By – Brad Mason, Elliott Mason
6:41
6 Riffin' The Griffin
Composed By – Josh Daniels
7:33
7 Ballad For Anne Boleyn
Composed By – Tim Garland
7:48
8 Fleet
Composed By – Mark Nightingale
5:21
9 Samba Deeze, Samba Doze
Composed By – Rex Cadwallader
4:28
10 Someone
Arranged By – Mark NightingaleComposed By – Bill Ashton
3:41
11 Luton Hoo
Composed By – Chris Smith
8:22
12 Astra Brazilia
Composed By – Steve Titchener
6:55

Companies, etc.

  • Recorded At – Ronnie Scott's
  • Mixed At – Temple Music Studios
  • Phonographic Copyright (p) – RSJH Music Ltd
  • Copyright (c) – Stanza-Music

Credits

  • Alto Saxophone – Howard McGill, Lisa Grahame*
  • Baritone Saxophone – Jon Halton (tracks: 1 to 10, 12), Mick Foster (tracks: 11)
  • Bass Guitar – Mark Ong (tracks: 11), Neil Williams (tracks: 1 to 10, 12)
  • Directed By – Bill Ashton, Steve Titchener, Tim Garland
  • Drums – Chris Dagley
  • Engineer – Chris Lewis
  • Guitar – Phil Robson
  • Mixed By, Liner Notes – Bill Ashton
  • Percussion – James Mack
  • Photography By [Front] – Chris Lewis
  • Photography By [Inside] – Richard H. Smith
  • Piano – Simon Carter
  • Tenor Saxophone – Ben Castle (tracks: 1 to 10, 12), James Hunt*, Jim Tomlinson (tracks: 11)
  • Trombone – Adrian Hallowell, Andy Rogers (tracks: 1 to 10, 12), Ashley Horton (tracks: 1 to 10, 12), Elliott Mason, Jeremy Price, Malcolm Smith* (tracks: 11), Mark Penny (tracks: 11)
  • Trumpet – Andy Cuss, Brad Mason, Jim Lynch (tracks: 11), Mick Ball (tracks: 1 to 10, 12), Mike Thomas (tracks: 1 to 10, 12), Neil Yates (tracks: 11), Olly Preece (tracks: 11), Pat White (tracks: 1 to 10, 12)
  • Vocals – Jenny Howe

Notes

Tracks 1-10, 12 recorded at Ronnie Scott's Club, London, March, 1995.
Track 11 recorded March, 1994.

Barcode and Other Identifiers

  • Barcode: 751848654428

Other versions

Category Artist Title (Format) Label Category Country Year
JACD 050 National Youth Jazz Orchestra A View From The Hill ‎(CD) Ronnie Scott's Jazz House JACD 050 US 1996
Related mp3, flac albums at National Youth Jazz Orchestra - A View From The Hill: